Big Bang Theory Season 1 Download Utorrent

The show is not available for free anywhere, and any free links are not legal. Some countries offer the show on Netflix which is the most affordable way to watch the show legally. It's great that you'd like to watch the show, but please support the creators if you can. Otherwise, I'd look for a different subreddit. Download The Big Bang Theory Complete Season 1 torrent or any other torrent from category. Direct download via HTTP available as well. Download The Big Bang Theory Complete Season 1 Torrent - kickasstorrents. To download and watch The Big Bang Theory Season 11-1 episodes freely, you generally have two ways to go: 1.

File Size
The.Big.Bang.Theory.S03E01.720p.mkv172.01 MB
The.Big.Bang.Theory.S03E02.720p.mkv172.12 MB
The.Big.Bang.Theory.S03E03.720p.mkv153.15 MB
The.Big.Bang.Theory.S03E04.720p.mkv144.86 MB
The.Big.Bang.Theory.S03E05.720p.mkv135.00 MB
The.Big.Bang.Theory.S03E06.720p.mkv155.21 MB
The.Big.Bang.Theory.S03E07.720p.mkv147.52 MB
The.Big.Bang.Theory.S03E08.720p.mkv126.28 MB
The.Big.Bang.Theory.S03E09.720p.mkv126.74 MB
The.Big.Bang.Theory.S03E10.720p.mkv162.80 MB
The.Big.Bang.Theory.S03E11.720p.mkv142.37 MB
The.Big.Bang.Theory.S03E12.720p.mkv142.34 MB
The.Big.Bang.Theory.S03E13.720p.mkv145.06 MB
The.Big.Bang.Theory.S03E14.720p.mkv158.01 MB
The.Big.Bang.Theory.S03E15.720p.mkv150.51 MB
The.Big.Bang.Theory.S03E16.720p.mkv150.30 MB
The.Big.Bang.Theory.S03E17.720p.mkv159.33 MB
The.Big.Bang.Theory.S03E18.720p.mkv146.98 MB
The.Big.Bang.Theory.S03E19.720p.mkv173.81 MB
The.Big.Bang.Theory.S03E20.720p.mkv132.32 MB
The.Big.Bang.Theory.S03E21.720p.mkv165.63 MB
The.Big.Bang.Theory.S03E22.720p.mkv125.73 MB
The.Big.Bang.Theory.S03E23.720p.mkv145.11 MB
Big bang theory season 1 download utorrent freeBig bang theory season 1 download utorrent torrent
Your IP Address is . Location is Sweden
Your Internet Provider and Government can track your download activities! Hide your IP ADDRESS with a VPN!
We strongly recommend using a VPN service to anonymize your torrent downloads. It's FREE!

The Big Bang Theory (2007) Season 8 S08 (1080p BluRay X265 HEVC 10bit AAC 5.1 Vyndros)

Big Bang Theory Season 1 Download Utorrent Watch

Torrent Details


NAME
The Big Bang Theory (2007) Season 8 S08 (1080p BluRay x265 HEVC 10bit AAC 5.1 Vyndros).torrent
CATEGORY
Television
INFOHASH
e5151c125d1f842a854a8581454ad90c924ecf9f
SIZE
15.2 GB in 24 files
ADDED
Uploaded on 15-07-2020 by our crawler pet called 'Spidey'.
SWARM
4 seeders & 6 peers
RATING
No votes yet.
Please login to vote for this torrent.


Big Bang Theory Wiki


Media Information
General
Format : Matroska
Format version : Version 4 / Version 2
File size : 669 MiB
Duration : 19 min 29 s
Overall bit rate : 4 803 kb/s
Encoded date : UTC 2020-07-12 21:16:38
Writing application : mkvmerge v20.0.0 ('I Am The Sun') 64-bit
Writing library : libebml v1.3.5 + libmatroska v1.4.8
Writing frontend : StaxRip v1.7.0.6
Video
ID : 1
Format : HEVC
Format/Info : High Efficiency Video Coding
Format profile : Main [email protected]@Main
Codec ID : V_MPEGH/ISO/HEVC
Duration : 19 min 27 s
Bit rate : 4 304 kb/s
Width : 1 920 pixels
Height : 1 080 pixels
Display aspect ratio : 16:9
Frame rate mode : Constant
Frame rate : 23.976 (24000/1001) FPS
Color space : YUV
Chroma subsampling : 4:2:0
Bit depth : 10 bits
Bits/(Pixel*Frame) : 0.087
Stream size : 599 MiB (90%)
Writing library : x265 3.4+1-7b120308dc64:[Windows][MSVC 1926][64 bit] 10bit
Encoding settings : cpuid=1111039 / frame-threads=2 / numa-pools=4 / wpp / no-pmode / no-pme / no-psnr / ssim / log-level=2 / input-csp=1 / input-res=1920x1080 / interlace=0 / total-frames=28000 / level-idc=0 / high-tier=1 / uhd-bd=0 / ref=3 / no-allow-non-conformance / no-repeat-headers / annexb / no-aud / no-hrd / info / hash=0 / no-temporal-layers / open-gop / min-keyint=23 / keyint=250 / gop-lookahead=0 / bframes=8 / b-adapt=2 / b-pyramid / bframe-bias=0 / rc-lookahead=80 / lookahead-slices=6 / scenecut=40 / hist-scenecut=0 / radl=0 / no-splice / no-intra-refresh / ctu=64 / min-cu-size=8 / no-rect / no-amp / max-tu-size=32 / tu-inter-depth=1 / tu-intra-depth=1 / limit-tu=0 / rdoq-level=0 / dynamic-rd=0.00 / no-ssim-rd / signhide / no-tskip / nr-intra=0 / nr-inter=0 / no-constrained-intra / no-strong-intra-smoothing / max-merge=5 / limit-refs=1 / no-limit-modes / me=3 / subme=5 / merange=57 / temporal-mvp / no-frame-dup / no-hme / weightp / no-weightb / no-analyze-src-pics / deblock=0:0 / sao / no-sao-non-deblock / rd=3 / selective-sao=4 / early-skip / no-rskip / no-fast-intra / no-tskip-fast / no-cu-lossless / b-intra / no-splitrd-skip / rdpenalty=0 / psy-rd=2.00 / psy-rdoq=0.00 / no-rd-refine / no-lossless / cbqpoffs=0 / crqpoffs=0 / rc=crf / crf=20.0 / qcomp=0.60 / qpstep=4 / stats-write=0 / stats-read=0 / ipratio=1.40 / pbratio=1.30 / aq-mode=2 / aq-strength=1.00 / cutree / zone-count=0 / no-strict-cbr / qg-size=32 / no-rc-grain / qpmax=69 / qpmin=0 / no-const-vbv / sar=0 / overscan=0 / videoformat=5 / range=0 / colorprim=2 / transfer=2 / colormatrix=2 / chromaloc=0 / display-window=0 / cll=0,0 / min-luma=0 / max-luma=1023 / log2-max-poc-lsb=8 / vui-timing-info / vui-hrd-info / slices=1 / no-opt-qp-pps / no-opt-ref-list-length-pps / no-multi-pass-opt-rps / scenecut-bias=0.05 / hist-threshold=0.01 / no-opt-cu-delta-qp / no-aq-motion / no-hdr10 / no-hdr10-opt / no-dhdr10-opt / no-idr-recovery-sei / analysis-reuse-level=0 / analysis-save-reuse-level=0 / analysis-load-reuse-level=0 / scale-factor=0 / refine-intra=0 / refine-inter=0 / refine-mv=1 / refine-ctu-distortion=0 / no-limit-sao / ctu-info=0 / no-lowpass-dct / refine-analysis-type=0 / copy-pic=1 / max-ausize-factor=1.0 / no-dynamic-refine / no-single-sei / no-hevc-aq / no-svt / no-field / qp-adaptation-range=1.00 / no-scenecut-aware-qpconformance-window-offsets / right=0 / bottom=0 / decoder-max-rate=0
Default : Yes
Forced : No
Audio
ID : 2
Format : AAC
Format/Info : Advanced Audio Codec
Format profile : LC
Codec ID : A_AAC
Duration : 19 min 29 s
Bit rate : 480 kb/s
Channel(s) : 6 channels
Channel positions : Front: L C R, Side: L R, LFE
Sampling rate : 48.0 kHz
Frame rate : 46.875 FPS (1024 spf)
Compression mode : Lossy
Delay relative to video : 20 ms
Stream size : 66.9 MiB (10%)
Language : English
Default : Yes
Forced : No
Subtitle
ID : 3
Format : PGS
Muxing mode : zlib
Codec ID : S_HDMV/PGS
Codec ID/Info : Picture based subtitle format used on BDs/HD-DVDs
Duration : 19 min 21 s
Bit rate : 48.1 kb/s
Count of elements : 628
Stream size : 6.66 MiB (1%)
Language : English
Default : No
Forced : No
Source Information
BluRay Remux

Comments 0

Post Your Comment

Big Bang Theory Season 1 Download Utorrent Free

To post your comment to this torrent, please login to our site.

Big Bang Theory Season 1 Download Utorrent Full

FILENAMESIZE
The.Big.Bang.Theory.S08E01.The.Locomotion.Interruption.1080p.10bit.BluRay.AAC5.1.HEVC-Vyndros.mkv586.1 MB
The.Big.Bang.Theory.S08E02.The.Junior.Professor.Solution.1080p.10bit.BluRay.AAC5.1.HEVC-Vyndros.mkv601.5 MB
The.Big.Bang.Theory.S08E03.The.First.Pitch.Insufficiency.1080p.10bit.BluRay.AAC5.1.HEVC-Vyndros.mkv643.7 MB
The.Big.Bang.Theory.S08E04.The.Hook-Up.Reverberation.1080p.10bit.BluRay.AAC5.1.HEVC-Vyndros.mkv675.9 MB
The.Big.Bang.Theory.S08E05.The.Focus.Attenuation.1080p.10bit.BluRay.AAC5.1.HEVC-Vyndros.mkv620.6 MB
The.Big.Bang.Theory.S08E06.The.Expedition.Approximation.1080p.10bit.BluRay.AAC5.1.HEVC-Vyndros.mkv546.2 MB
The.Big.Bang.Theory.S08E07.The.Misinterpretation.Agitation.1080p.10bit.BluRay.AAC5.1.HEVC-Vyndros.mkv563.9 MB
The.Big.Bang.Theory.S08E08.The.Prom.Equivalency.1080p.10bit.BluRay.AAC5.1.HEVC-Vyndros.mkv500.4 MB
The.Big.Bang.Theory.S08E09.The.Septum.Deviation.1080p.10bit.BluRay.AAC5.1.HEVC-Vyndros.mkv640.4 MB
The.Big.Bang.Theory.S08E10.The.Champagne.Reflection.1080p.10bit.BluRay.AAC5.1.HEVC-Vyndros.mkv1.5 GB
The.Big.Bang.Theory.S08E11.The.Clean.Room.Infiltration.1080p.10bit.BluRay.AAC5.1.HEVC-Vyndros.mkv669.4 MB
The.Big.Bang.Theory.S08E12.The.Space.Probe.Disintegration.1080p.10bit.BluRay.AAC5.1.HEVC-Vyndros.mkv647.9 MB
The.Big.Bang.Theory.S08E13.The.Anxiety.Optimization.1080p.10bit.BluRay.AAC5.1.HEVC-Vyndros.mkv599.7 MB
The.Big.Bang.Theory.S08E14.The.Troll.Manifestation.1080p.10bit.BluRay.AAC5.1.HEVC-Vyndros.mkv716.2 MB
The.Big.Bang.Theory.S08E15.The.Comic.Book.Store.Regeneration.1080p.10bit.BluRay.AAC5.1.HEVC-Vyndros.mkv675.5 MB
The.Big.Bang.Theory.S08E16.The.Intimacy.Acceleration.1080p.10bit.BluRay.AAC5.1.HEVC-Vyndros.mkv595.3 MB
The.Big.Bang.Theory.S08E17.The.Colonization.Application.1080p.10bit.BluRay.AAC5.1.HEVC-Vyndros.mkv638.3 MB
The.Big.Bang.Theory.S08E18.The.Leftover.Thermalization.1080p.10bit.BluRay.AAC5.1.HEVC-Vyndros.mkv521.2 MB
The.Big.Bang.Theory.S08E19.The.Skywalker.Incursion.1080p.10bit.BluRay.AAC5.1.HEVC-Vyndros.mkv648.9 MB
The.Big.Bang.Theory.S08E20.The.Fortification.Implementation.1080p.10bit.BluRay.AAC5.1.HEVC-Vyndros.mkv601.7 MB
The.Big.Bang.Theory.S08E21.The.Communication.Deterioration.1080p.10bit.BluRay.AAC5.1.HEVC-Vyndros.mkv612.1 MB
The.Big.Bang.Theory.S08E22.The.Graduation.Transmission.1080p.10bit.BluRay.AAC5.1.HEVC-Vyndros.mkv589.1 MB
The.Big.Bang.Theory.S08E23.The.Maternal.Combustion.1080p.10bit.BluRay.AAC5.1.HEVC-Vyndros.mkv656.2 MB
The.Big.Bang.Theory.S08E24.The.Commitment.Determination.1080p.10bit.BluRay.AAC5.1.HEVC-Vyndros.mkv528.4 MB

Alternative Torrents for 'Big Bang Theory Season BluRay HEVC bit AAC Vyndros'.

Comments are closed.